#TITLE:Yayaya;
#SUBTITLE:Expi3nze;
#ARTIST:T-ara;
#TITLETRANSLIT:;
#SUBTITLETRANSLIT:;
#ARTISTTRANSLIT:;
#CREDIT:;
#BANNER:bn.png;
#BACKGROUND:bg.png;
#LYRICSPATH:;
#CDTITLE:;
#MUSIC:Yayaya - tiara.mp3;
#OFFSET:-0.020;
#SAMPLESTART:40.783;
#SAMPLELENGTH:21.527;
#SELECTABLE:YES;
#BPMS:0.000=131.003,2.000=130.997,3.000=131.003,4.000=130.997,5.000=131.003,6.000=130.997,7.000=131.003,8.000=130.997,9.000=131.003,10.000=130.997,11.000=131.003,12.000=130.997,13.000=131.003,14.000=130.997,15.000=131.003,16.000=262.032,16.500=65.502,16.750=131.016,17.000=130.997,18.000=131.003,19.000=130.997,20.000=131.003,21.000=130.997,22.000=131.003,24.000=130.997,25.000=131.003,26.000=130.997,27.000=131.003,28.000=130.997,29.000=131.003,30.000=130.997,31.000=131.003,32.000=130.997,33.000=131.003,34.000=130.997,35.000=131.003,36.000=130.997,37.000=131.003,38.000=130.997,39.000=131.003,40.000=130.997,41.000=131.003,43.000=130.997,44.000=131.003,45.000=130.997,46.000=131.003,47.000=130.997,48.000=131.003,49.000=130.997,50.000=131.003,51.000=130.997,52.000=131.003,53.000=130.997,54.000=131.003,55.000=130.997,56.000=262.032,56.500=65.502,56.750=131.016,57.000=130.997,58.000=131.003,59.000=130.997,60.000=131.003,61.000=130.997,62.000=131.003,63.000=130.997,64.000=131.003,66.000=130.997,67.000=131.003,68.000=130.997,69.000=131.003,70.000=130.997,71.000=131.003,72.000=130.997,73.000=131.003,74.000=130.997,75.000=131.003,76.000=130.997,77.000=131.003,78.000=130.997,79.000=131.003,80.000=130.997,81.000=131.003,82.000=130.997,83.000=131.003,85.000=130.997,86.000=131.003,87.000=130.997,88.000=131.003,89.000=130.997,90.000=131.003,91.000=130.997,92.000=131.003,93.000=130.997,94.000=131.003,95.000=130.997,96.000=131.003,97.000=130.997,98.000=131.003,99.000=130.997,100.000=131.003,101.000=130.997,102.000=65.503,102.333=262.032,103.000=65.503,103.333=262.032,104.000=131.003,105.000=130.997,106.000=131.003,107.000=130.997,108.000=131.003,110.000=130.997,111.000=131.003,112.000=130.997,113.000=131.003,114.000=130.997,115.000=131.003,116.000=65.503,116.333=262.032,117.000=131.003,118.000=130.997,119.000=131.003,120.000=130.997,121.000=131.007,121.750=262.084,122.000=261.980,122.250=131.007,123.000=130.997,124.000=262.032,124.500=131.003,126.000=130.990,126.250=262.032,126.750=131.016,127.000=130.997,128.000=131.003,128.500=262.032,129.000=131.003,130.000=130.997,131.000=131.003,132.000=130.997,133.000=131.003,135.000=130.997,136.000=131.003,137.000=130.997,138.000=131.003,139.000=130.997,140.000=130.999,140.750=262.084,141.000=261.980,141.250=131.007,142.000=130.997,143.000=262.032,143.500=131.003,145.000=130.990,145.250=262.032,145.750=131.016,146.000=130.997,147.000=131.003,148.000=130.997,149.000=131.003,150.000=130.997,151.000=131.003,152.000=130.997,153.000=131.003,154.500=262.032,155.000=131.003,155.500=65.508,155.667=262.032,156.000=65.508,156.167=262.032,156.500=131.003,158.000=130.997,159.000=131.003,159.500=65.508,159.667=262.032,160.000=65.508,160.167=262.032,160.500=131.003,162.000=130.997,163.000=131.003,163.500=65.508,163.667=262.032,164.000=65.508,164.167=262.032,164.500=131.003,165.000=130.999,165.750=262.084,166.000=261.980,166.250=131.007,167.000=130.997,168.000=262.032,168.500=131.003,170.000=130.990,170.250=262.032,170.750=131.016,171.000=130.997,172.000=131.003,173.500=262.032,174.000=131.003,175.000=130.999,175.750=262.084,176.000=261.980,176.250=131.007,177.000=130.990,177.500=65.502,177.750=131.016,178.000=65.503,178.333=262.032,179.000=131.003,180.000=130.997,181.000=131.003,182.000=130.997,183.000=131.003,185.000=65.503,185.333=262.032,186.000=65.503,186.333=262.032,187.000=131.003,188.000=130.997,189.000=131.003,190.000=130.997,191.000=131.003,193.000=130.997,194.000=131.003,195.000=130.997,196.000=131.003,197.000=130.997,198.000=131.003,199.000=130.997,200.000=131.003,201.000=130.997,202.000=131.003,203.000=130.997,204.000=131.003,205.000=130.997,206.000=131.003,207.000=130.997,208.000=131.003,209.000=130.997,210.000=131.003,211.000=130.997,212.000=131.003,213.000=130.997,214.000=131.003,215.000=130.997,216.000=131.003,218.000=130.997,219.000=131.003,220.000=130.997,221.000=131.003,222.000=130.997,223.000=131.003,224.000=130.999,224.750=261.980,225.000=262.084,225.250=130.999,226.000=131.003,227.000=262.032,227.500=131.003,229.000=130.990,229.250=262.032,229.750=131.016,230.000=130.997,231.000=131.003,231.500=262.032,232.000=131.003,233.000=130.997,234.000=131.003,235.000=130.997,236.000=131.003,237.000=130.997,238.000=131.003,239.000=130.997,240.000=131.003,242.000=130.997,243.000=130.999,243.750=261.980,244.000=262.084,244.250=130.999,245.000=131.003,246.000=262.032,246.500=131.003,248.000=130.990,248.250=262.032,248.750=131.016,249.000=130.997,250.000=131.003,251.000=130.997,252.000=131.003,253.000=130.997,254.000=131.003,255.000=130.997,256.000=131.003,257.500=262.032,258.000=131.003,258.500=65.498,258.667=262.032,259.000=65.498,259.167=262.032,259.500=131.003,261.000=130.997,262.000=131.003,262.500=65.498,262.667=262.032,263.000=65.498,263.167=262.032,263.500=131.003,265.000=130.997,266.000=131.003,266.500=65.498,266.667=262.032,267.000=65.498,267.167=262.032,267.500=131.003,268.000=130.999,268.750=261.980,269.000=262.084,269.250=130.999,270.000=131.003,271.000=262.032,271.500=131.003,273.000=130.990,273.250=262.032,273.750=131.016,274.000=130.997,275.000=131.003,276.000=130.997,277.000=65.502,277.250=130.999,278.000=262.006,279.000=131.003,280.000=130.997,281.000=131.003,282.000=130.997,283.000=131.003,284.000=130.997,285.000=131.003,286.000=130.997,287.000=131.003,289.000=130.997,290.000=131.003,291.000=130.997,292.000=131.003,293.000=130.997,294.000=131.003,295.000=130.997,296.000=131.003;
#STOPS:;
#BGCHANGES:;
// cache tags:
#FIRSTBEAT:1.000;
#LASTBEAT:291.000;
#SONGFILENAME:Songs/SDO pack 3/Yayaya -T-ara/Yayaya - tiara.sm;
#HASMUSIC:1;
#HASBANNER:1;
#MUSICLENGTH:133.726;
// end cache tags

//---------------dance-single - ----------------
#NOTES:
     dance-single:
     :
     Hard:
     14:
     1.000,1.000,1.000,1.000,0.875,656.000,295.000,137.000,0.000,142.000:
0000
0000
0000
0000
0020
0001
0130
0010
1002
0100
0013
1000
0011
1000
0100
0000
,
1110
0000
0100
0000
0020
1000
0130
1000
0020
0230
0301
0010
1001
0010
0001
0100
,
1010
0100
0010
0001
2100
0010
3100
0010
1002
0100
0003
0010
0101
0010
1000
0100
,
0011
0100
1000
0010
0002
1000
0103
0010
0101
0010
1000
0010
0101
0010
0100
1000
,
0011
0000
0000
0000
0010
0100
0010
0001
0100
0010
0100
1000
0010
0100
0010
0001
,
0100
0010
0100
0001
2100
0000
3012
0000
2103
0000
3012
0100
1003
0000
0001
0010
,
0101
0000
0001
0010
2001
0000
3020
1000
2130
0000
3020
1000
0130
0000
0001
0010
,
0101
0000
0001
0010
2100
0000
3012
0000
2103
0000
3012
0100
1003
0000
0001
0010
,
0101
0000
0001
0010
2001
0000
3020
1000
2130
0000
3020
1000
0130
0000
0001
0010
,
0101
0000
0100
0010
2001
0000
3012
0000
2103
0000
3012
0100
1003
0000
0001
0010
,
0101
0000
0001
0010
2001
0000
3020
1000
2130
0000
3020
1000
0130
0000
0001
0010
,
0101
0000
0101
0000
0102
0010
1000
0100
1010
0100
0010
1000
0110
1000
0010
1000
,
0110
1000
0010
0100
1023
0100
1000
0001
1100
0001
1000
0100
1001
0100
1000
0001
,
1100
0001
0100
0000
0130
0000
0000
0000
0000
0000
0000
0000
0000
0000
0000
0000
,
1011
0000
0000
0000
0011
1000
0100
0010
1001
0100
0001
0010
1001
0010
0100
0000
,
0011
1100
1001
0011
1001
1001
0022
0033
,
0022
0000
0033
0100
1010
0100
1000
0001
0110
0001
1000
0100
1001
0010
0100
1000
,
0011
0101
0011
1001
1100
1001
2002
3003
,
2002
0000
3003
0010
0101
0010
1000
0100
0011
0100
0001
0010
0101
0000
1000
0100
,
1010
0000
0001
0010
0101
0000
1000
0100
1010
0000
0001
0010
0101
0000
1000
0010
,
1100
0010
0001
0000
2010
0100
0001
0010
0101
0010
0100
0001
0110
0001
0100
0010
,
0101
0010
0001
0000
3011
0000
1000
0100
0010
0000
1000
0100
0010
0000
1000
0100
,
0010
0000
0000
0000
2100
0000
3012
0000
2103
0000
3012
0100
1003
0000
0001
0010
,
0101
0000
0001
0010
2001
0000
3020
1000
2130
0000
3020
1000
0130
0000
0001
0010
,
0101
0000
1000
0100
0011
0100
0001
0010
0101
0010
1000
0000
0012
0000
1103
0000
,
0012
0000
0103
0010
1001
0100
0010
0000
1101
0000
0000
0000
1011
0000
0000
0000
,
1011
0000
0000
0000
2100
0000
3012
0000
2103
0000
3012
0100
1003
0000
0001
0010
,
0101
0000
0001
0010
2001
0000
3020
1000
2130
0000
3020
1000
0130
0000
0001
0010
,
0101
0000
0101
0000
0012
0100
1000
0010
1100
0010
2000
0100
0010
0100
0010
0000
,
0113
0000
0000
0000
0011
0000
0011
0000
0011
0000
3011
0000
2011
0011
0011
0011
,
0011
0011
0011
3011
2011
0000
3011
0000
0000
1011
0000
0011
0000
2100
0000
3011
,
0000
0000
1011
0000
0011
0000
2100
0000
3011
0000
0000
1011
0000
0011
0000
2100
,
0000
3011
0000
0000
1011
0000
0000
0000
0010
0000
1000
0000
0010
0000
1000
0000
,
0010
1000
0010
0000
0200
0302
2013
3020
,
0030
0000
1010
0000
1011
0000
0000
0000
0111
0000
1000
0100
1010
0000
0011
0000
,
2100
0000
3011
0000
0000
1011
0000
0011
0000
2100
0000
3011
0000
0000
1011
0000
,
0011
0000
2100
0000
3011
0000
0000
1011
0000
0000
0000
0010
0000
1000
0000
0010
,
0000
1000
0000
0010
0000
1000
0000
0010
0000
0000
0000
0200
0000
0302
0000
2013
,
0000
3020
0000
0030
0000
1010
0000
1011
0000
0000
0000
0000
1011
0000
0011
0000
,
0011
0011
2100
3011
1101
0011
1101
0011
,
0011
0011
2100
3011
1101
0011
1011
1010
,
1010
0000
1010
0000
2010
0000
3011
0000
0000
1011
0000
0011
0000
2100
0000
3011
,
0000
0000
1011
0000
0011
0000
2100
0000
3011
0000
0000
1011
0000
0000
0000
0100
,
0010
1000
0100
0022
0000
0033
0000
0000
2021
0000
3030
0000
1110
0000
0000
0000
,
0000
2021
0000
3030
0000
0111
0000
0000
0110
0000
0000
0000
1222
0000
0333
0000
,
0010
0100
0010
0001
1100
0010
0100
0000
0011
0000
0000
0000
1001
0000
1100
0000
,
1001
0111
1101
1011
,
0100
0000
0000
1000
0010
0000
1010
0000
1010
0000
0000
0000
0011
0000
0000
0000
,
2000
0000
3002
0000
2103
0000
3002
0000
0103
0000
0000
0010
1000
0000
0010
0100
,
0002
0000
0203
0000
1302
0000
0203
0000
0301
0000
0000
0010
0100
0000
0001
0000
,
0101
0000
0020
0000
0132
0000
0203
0000
0310
0000
0000
1000
0010
0000
1010
0000
,
1010
0020
0231
0302
1003
0000
0200
0300
,
0111
0000
1000
0000
0010
0100
1000
0000
0020
0000
0030
0020
0100
0030
1000
0010
,
0100
0000
0010
0000
0102
1000
0010
0103
0010
0000
0001
0100
0010
1000
0100
0010
,
0001
0000
0100
1000
0010
0000
0100
0010
0200
0001
0310
0200
0010
0301
1000
0100
,
0010
0100
0001
0000
0020
1000
0100
0030
2011
0011
0011
0011
0011
0011
0011
3011
,
2011
0000
3011
0000
0000
1011
0000
0011
0000
2100
0000
3011
0000
0000
1011
0000
,
0011
0000
2100
0000
3011
0000
0000
1011
0000
0011
0000
2100
0000
3011
0000
0000
,
1011
0000
0010
1000
0010
1000
0010
1000
,
0010
0000
0200
0302
2013
3020
0030
1010
,
1011
0000
0000
0000
0111
0000
1000
0100
1010
0000
0011
0000
2100
0000
3011
0000
,
0000
1011
0000
0011
0000
2100
0000
3011
0000
0000
1011
0000
0011
0000
2100
0000
,
3011
0000
0000
1011
0000
0000
0000
0010
0000
1000
0000
0010
0000
1000
0000
0010
,
0000
1000
0000
0010
0000
0000
0000
0200
0000
0302
0000
2013
0000
3020
0000
0030
,
0000
1010
0000
1011
0000
0000
0000
0000
1011
0000
0011
0000
0011
0000
0011
0000
,
2100
3011
1101
0011
1101
0011
0011
0011
,
2100
3011
1101
0011
1011
1010
1010
1010
,
2010
0000
3011
0000
0000
1011
0000
0011
0000
2100
0000
3011
0000
0000
1011
0000
,
0011
0000
2100
0000
3011
0000
0000
1011
0000
0000
0000
1000
0100
0010
0001
1000
,
0100
0010
0001
1100
0000
1100
1100
1100
1100
0000
0000
0000
2200
0000
0000
0000
,
0000
0000
0000
0000
,
0000
0000
0000
0000
,
0000
0000
0000
3300
,
0000
0000
0000
0000
,
0000
0000
0000
0000
,
0000
0000
0000
0000
,
0000
0000
0000
0000
,
0000
0000
0000
0000
,
0000
0000
0000
0000
,
0000
0000
0000
0000
,
0000
0000
0000
0000
,
0000
0000
0000
0000
,
0000
0000
0000
0000
,
0000
0000
0000
0000
,
0000
0000
0000
0000
,
0000
0000
0000
0000
,
0000
0000
0000
0000
,
0000
0000
0000
0000
,
0000
0000
0000
0000
,
0000
0000
0000
0000
,
0000
0000
0000
0000
,
0000
0000
0000
0000
,
0000
0000
0000
0000
;
